서버에 요청중입니다...
[2018/1/20] 업데이트사항
1. 화면 우측에 달력이 있습니다. 해당날짜를 클릭하면 통합검색이 됩니다.
2. 각 게시판에 마그넷을 추가하였습니다. 리스트에서 마그넷을 확인할수 있습니다. 단, 자막이 있는경우 내용으로 들어가셔서 이용하셔야 합니다.
[광고/문의]
토렌트 토캅스 바로가기
트위터 즐겨찾기
아이디 비밀번호
[중요] 접속오류시 구글에서 토캅스를 검색하세요. 공식주소: https://tocorps.com
[AD]
빠른메뉴 공지사항 토렌트설치 주간인기TOP 100 19+검색 어른장난감
작성일 : 17-12-14 18:00 [애니]
[한글] 팀 버튼의 크리스마스 악몽 The Nightmare Before Christmas 1993 (1080p Bluray x265 HEVC 10bit AAC 7.1 Tigole)
 [한글] 팀 버튼의 크리스마스 악몽 The Nightmare Before Christmas 1993 (1080p Bluray x265 HEVC 10bit AAC 7.1 Tigole) [직접다운]
 [무료게임] 2002년도 리니지! 그때 그시절 사람들이 당신을 기다리고 있습니다 [클릭]
전체용량: 3.08G
토렌트 파일목록 (16)
Featurettes/Deleted Scenes.mkv 25.65M
Featurettes/Deleted Storyboards.mkv 11.51M
Featurettes/Frankenweenie Introduction by Tim Burton.mkv 9.75M
Featurettes/Frankenweenie.mkv 184.20M
Featurettes/Jack's Haunted Mansion Holiday Tour - Off Track Version.mkv 443.07M
Featurettes/Jack's Haunted Mansion Holiday Tour - On Track Version.mkv 85.44M
Featurettes/Poem Introduction by Tim Burton.mkv 8.16M
Featurettes/Screen Test - Jack.mkv 7.57M
Featurettes/Screen Test - Sally.mkv 869.54K
Featurettes/Screen Test - Zero.mkv 2.05M
Featurettes/Storyboard-to-Film Comparison.mkv 8.57M
Featurettes/The Making of.mkv 97.73M
Featurettes/The Original Poem.mkv 129.82M
Featurettes/Trailer.mkv 5.75M
Featurettes/Vincent.mkv 16.84M
The Nightmare Before Christmas 1993 (1080p x265 10bit Tigole).mkv 2.06G

팀 버튼의 크리스마스 악몽

 

지금까지 한번도 느껴보지 못한 놀라운 입체영상 | 3D로 돌아오는 팀 버튼 사상 최고의 걸작

영화가 시작되면 이상하고 기묘한 노래에 의해 할로윈타운으로 인도된다. 이 괴상한 마을은 사람들을 놀라게 하는 신선한 방법을 연구하는 연례 행사에 열중하고 있다. 이 마을의 지도자 잭 스켈링튼(Jack Skellington-Sung: 대니 엘프먼 목소리 분)은 전해내려오는 방법들에 싫증을 느끼고 뭔가 새로은 방법 찾기에 골몰한다.
  어느날 숲을 지나 크리스마스타운에 간 잭은 기쁨에 가득차 크리스마스를 준비하는 사람들을 발견한다. 이를 본 잭은 산타를 납치해 크리스마스의 주인이 될 계획을 세운다. 잭은 수염과 붉은 옷을 입고 세마리의 순록이 이끄는 스키를 타고 내려와 할로윈 주민들을 풀어 마을을 공포 분위기로 만든다. 쭈그러진 머리나 트리를 게걸스럽게 먹는 뱀 등등 일대 소동이 벌어진다. 산타가 할로윈의 악마 부기 우기에 의해 먹히려는 순간 잭은 마음을 바꿔 산타를 구하고 원래의 크리스마스를 돌려준다.

 



The Nightmare Before Christmas 1993 in 1080p, encoded with x265 in HEVC and AAC 7.1 English, with subtitles!
Encoded using the time consuming 2 pass, 10 bit color at 3250 kbps, from a Blu-ray source, for the highest quality possible.



Media Information

Code:

General
Format : Matroska
Format version : Version 4 / Version 2
File size : 2.06 GiB
Duration : 1 h 16 min
Overall bit rate : 3 855 kb/s
Encoded date : UTC 2016-12-22 09:49:35
Writing application : mkvmerge v9.6.0 (Slave To Your Mind) 64bit
Writing library : libebml v1.3.4 + libmatroska v1.4.5

Video
ID : 1
Format : HEVC
Format/Info : High Efficiency Video Coding
Format profile : Main [email protected]@Main
Codec ID : V_MPEGH/ISO/HEVC
Duration : 1 h 16 min
Bit rate : 3 237 kb/s
Width : 1 800 pixels
Height : 1 080 pixels
Display aspect ratio : 5:3
Frame rate mode : Constant
Frame rate : 23.976 (24000/1001) FPS
Color space : YUV
Chroma subsampling : 4:2:0
Bit depth : 10 bits
Bits/(Pixel*Frame) : 0.069
Stream size : 1.73 GiB (84%)
Writing library : x265 2.1+70-78e1e1354a25:[Windows][GCC 6.2.0][64 bit] 10bit
Encoding settings : cpuid=1173503 / frame-threads=3 / numa-pools=8 / wpp / no-pmode / no-pme / no-psnr / no-ssim / log-level=2 / input-csp=1 / input-res=1800x1080 / interlace=0 / total-frames=110286 / level-idc=0 / high-tier=1 / uhd-bd=0 / ref=3 / no-allow-non-conformance / no-repeat-headers / annexb / no-aud / no-hrd / info / hash=0 / no-temporal-layers / open-gop / min-keyint=23 / keyint=250 / bframes=4 / b-adapt=2 / b-pyramid / bframe-bias=0 / rc-lookahead=20 / lookahead-slices=6 / scenecut=40 / no-intra-refresh / ctu=64 / min-cu-size=8 / no-rect / no-amp / max-tu-size=32 / tu-inter-depth=1 / tu-intra-depth=1 / limit-tu=0 / rdoq-level=0 / signhide / no-tskip / nr-intra=0 / nr-inter=0 / no-constrained-intra / strong-intra-smoothing / max-merge=2 / limit-refs=3 / no-limit-modes / me=1 / subme=2 / merange=57 / temporal-mvp / weightp / no-weightb / no-analyze-src-pics / deblock=0:0 / sao / no-sao-non-deblock / rd=3 / no-early-skip / rskip / no-fast-intra / no-tskip-fast / no-cu-lossless / no-b-intra / rdpenalty=0 / psy-rd=2.00 / psy-rdoq=0.00 / no-rd-refine / analysis-mode=0 / no-lossless / cbqpoffs=0 / crqpoffs=0 / rc=abr / bitrate=3237 / qcomp=0.60 / qpstep=4 / stats-write=0 / stats-read=2 / stats-file=E:The / Nightmare / Before / Christmas / cplxblur=20.0 / qblur=0.5 / ipratio=1.40 / pbratio=1.30 / aq-mode=2 / aq-strength=1.00 / cutree / zone-count=0 / no-strict-cbr / qg-size=32 / no-rc-grain / qpmax=69 / qpmin=0 / sar=0 / overscan=0 / videoformat=5 / range=0 / colorprim=2 / transfer=2 / colormatrix=2 / chromaloc=0 / display-window=0 / max-cll=0,0 / min-luma=0 / max-luma=1023 / log2-max-poc-lsb=8 / vui-timing-info / vui-hrd-info / slices=1 / opt-qp-pps / opt-ref-list-length-pps / no-multi-pass-opt-rps / scenecut-bias=0.05
Default : Yes
Forced : No

Audio #1
ID : 2
Format : AAC
Format/Info : Advanced Audio Codec
Format profile : LC
Codec ID : A_AAC
Duration : 1 h 16 min
Bit rate : 425 kb/s
Channel(s) : 8 channels
Channel positions : Front: L C R, Side: 4, LFE
Sampling rate : 48.0 kHz
Frame rate : 46.875 FPS (1024 spf)
Compression mode : Lossy
Delay relative to video : 20 ms
Stream size : 233 MiB (11%)
Language : English
Default : Yes
Forced : No

Audio #2
ID : 3
Format : AAC
Format/Info : Advanced Audio Codec
Format profile : HE-AAC / LC
Codec ID : A_AAC
Duration : 1 h 16 min
Bit rate : 66.2 kb/s
Channel(s) : 2 channels
Channel positions : Front: L R
Sampling rate : 48.0 kHz / 24.0 kHz
Frame rate : 23.438 FPS (1024 spf)
Compression mode : Lossy
Delay relative to video : 40 ms
Stream size : 36.1 MiB (2%)
Title : Commentary
Language : English
Default : No
Forced : No

Text #1
ID : 4
Format : VobSub
Muxing mode : zlib
Codec ID : S_VOBSUB
Codec ID/Info : Picture based subtitle format used on DVDs
Duration : 1 h 10 min
Bit rate : 5 788 b/s
Count of elements : 947
Stream size : 2.92 MiB (0%)
Language : English
Default : No
Forced : No

Text #2
ID : 5
Format : VobSub
Muxing mode : zlib
Codec ID : S_VOBSUB
Codec ID/Info : Picture based subtitle format used on DVDs
Duration : 1 h 10 min
Bit rate : 4 356 b/s
Count of elements : 818
Stream size : 2.21 MiB (0%)
Language : French
Default : No
Forced : No

Text #3
ID : 6
Format : VobSub
Muxing mode : zlib
Codec ID : S_VOBSUB
Codec ID/Info : Picture based subtitle format used on DVDs
Duration : 1 h 15 min
Bit rate : 8 853 b/s
Count of elements : 1221
Stream size : 4.75 MiB (0%)
Title : Commentary
Language : French
Default : No
Forced : No

Text #4
ID : 7
Format : VobSub
Muxing mode : zlib
Codec ID : S_VOBSUB
Codec ID/Info : Picture based subtitle format used on DVDs
Duration : 1 h 10 min
Bit rate : 4 750 b/s
Count of elements : 796
Stream size : 2.40 MiB (0%)
Language : Italian
Default : No
Forced : No

Text #5
ID : 8
Format : VobSub
Muxing mode : zlib
Codec ID : S_VOBSUB
Codec ID/Info : Picture based subtitle format used on DVDs
Duration : 1 h 15 min
Bit rate : 7 747 b/s
Count of elements : 1222
Stream size : 4.16 MiB (0%)
Title : Commentary
Language : Italian
Default : No
Forced : No

Text #6
ID : 9
Format : VobSub
Muxing mode : zlib
Codec ID : S_VOBSUB
Codec ID/Info : Picture based subtitle format used on DVDs
Duration : 1 h 10 min
Bit rate : 5 470 b/s
Count of elements : 833
Stream size : 2.76 MiB (0%)
Language : German
Default : No
Forced : No

Text #7
ID : 10
Format : VobSub
Muxing mode : zlib
Codec ID : S_VOBSUB
Codec ID/Info : Picture based subtitle format used on DVDs
Duration : 59 min 16 s
Bit rate : 39 b/s
Count of elements : 9
Stream size : 17.3 KiB (0%)
Title : Forced
Language : German
Default : No
Forced : No

Text #8
ID : 11
Format : VobSub
Muxing mode : zlib
Codec ID : S_VOBSUB
Codec ID/Info : Picture based subtitle format used on DVDs
Duration : 1 h 15 min
Bit rate : 8 293 b/s
Count of elements : 1222
Stream size : 4.45 MiB (0%)
Title : Commentary
Language : German
Default : No
Forced : No

Text #9
ID : 12
Format : VobSub
Muxing mode : zlib
Codec ID : S_VOBSUB
Codec ID/Info : Picture based subtitle format used on DVDs
Duration : 1 h 10 min
Bit rate : 5 074 b/s
Count of elements : 833
Stream size : 2.57 MiB (0%)
Language : Spanish
Default : No
Forced : No

Text #10
ID : 13
Format : VobSub
Muxing mode : zlib
Codec ID : S_VOBSUB
Codec ID/Info : Picture based subtitle format used on DVDs
Duration : 1 h 15 min
Bit rate : 8 014 b/s
Count of elements : 1224
Stream size : 4.30 MiB (0%)
Title : Commentary
Language : Spanish
Default : No
Forced : No

Text #11
ID : 14
Format : VobSub
Muxing mode : zlib
Codec ID : S_VOBSUB
Codec ID/Info : Picture based subtitle format used on DVDs
Duration : 1 h 10 min
Bit rate : 3 714 b/s
Count of elements : 629
Stream size : 1.87 MiB (0%)
Language : Dutch
Default : No
Forced : No

Text #12
ID : 15
Format : VobSub
Muxing mode : zlib
Codec ID : S_VOBSUB
Codec ID/Info : Picture based subtitle format used on DVDs
Duration : 1 h 15 min
Bit rate : 6 387 b/s
Count of elements : 995
Stream size : 3.43 MiB (0%)
Title : Commentary
Language : Dutch
Default : No
Forced : No

Text #13
ID : 16
Format : VobSub
Muxing mode : zlib
Codec ID : S_VOBSUB
Codec ID/Info : Picture based subtitle format used on DVDs
Duration : 1 h 15 min
Bit rate : 4 133 b/s
Count of elements : 674
Stream size : 2.23 MiB (0%)
Language : Swedish
Default : No
Forced : No

Text #14
ID : 17
Format : VobSub
Muxing mode : zlib
Codec ID : S_VOBSUB
Codec ID/Info : Picture based subtitle format used on DVDs
Duration : 1 h 15 min
Bit rate : 7 534 b/s
Count of elements : 1215
Stream size : 4.04 MiB (0%)
Title : Commentary
Language : Swedish
Default : No
Forced : No

Text #15
ID : 18
Format : VobSub
Muxing mode : zlib
Codec ID : S_VOBSUB
Codec ID/Info : Picture based subtitle format used on DVDs
Duration : 1 h 10 min
Bit rate : 4 308 b/s
Count of elements : 825
Stream size : 2.18 MiB (0%)
Language : Norwegian Bokmal
Default : No
Forced : No

Text #16
ID : 19
Format : VobSub
Muxing mode : zlib
Codec ID : S_VOBSUB
Codec ID/Info : Picture based subtitle format used on DVDs
Duration : 1 h 15 min
Bit rate : 8 551 b/s
Count of elements : 1222
Stream size : 4.59 MiB (0%)
Title : Commentary
Language : Norwegian Bokmal
Default : No
Forced : No

Text #17
ID : 20
Format : VobSub
Muxing mode : zlib
Codec ID : S_VOBSUB
Codec ID/Info : Picture based subtitle format used on DVDs
Duration : 1 h 10 min
Bit rate : 4 306 b/s
Count of elements : 668
Stream size : 2.17 MiB (0%)
Language : Danish
Default : No
Forced : No

Text #18
ID : 21
Format : VobSub
Muxing mode : zlib
Codec ID : S_VOBSUB
Codec ID/Info : Picture based subtitle format used on DVDs
Duration : 1 h 15 min
Bit rate : 6 526 b/s
Count of elements : 1216
Stream size : 3.50 MiB (0%)
Title : Commentary
Language : Danish
Default : No
Forced : No

Text #19
ID : 22
Format : VobSub
Muxing mode : zlib
Codec ID : S_VOBSUB
Codec ID/Info : Picture based subtitle format used on DVDs
Duration : 1 h 10 min
Bit rate : 4 387 b/s
Count of elements : 833
Stream size : 2.22 MiB (0%)
Language : Finnish
Default : No
Forced : No

Text #20
ID : 23
Format : VobSub
Muxing mode : zlib
Codec ID : S_VOBSUB
Codec ID/Info : Picture based subtitle format used on DVDs
Duration : 1 h 15 min
Bit rate : 6 957 b/s
Count of elements : 1082
Stream size : 3.73 MiB (0%)
Title : Commentary
Language : Finnish
Default : No
Forced : No

Text #21
ID : 24
Format : VobSub
Muxing mode : zlib
Codec ID : S_VOBSUB
Codec ID/Info : Picture based subtitle format used on DVDs
Duration : 1 h 10 min
Bit rate : 4 831 b/s
Count of elements : 821
Stream size : 2.44 MiB (0%)
Language : Icelandic
Default : No
Forced : No

Text #22
ID : 25
Format : VobSub
Muxing mode : zlib
Codec ID : S_VOBSUB
Codec ID/Info : Picture based subtitle format used on DVDs
Duration : 1 h 15 min
Bit rate : 8 540 b/s
Count of elements : 1219
Stream size : 4.58 MiB (0%)
Title : Commentary
Language : Icelandic
Default : No
Forced : No

Menu
00:00:00.000 : en:Chapter 01
00:01:19.579 : en:Chapter 02
00:06:22.298 : en:Chapter 03
00:14:09.932 : en:Chapter 04
00:20:53.210 : en:Chapter 05
00:26:16.324 : en:Chapter 06
00:30:44.342 : en:Chapter 07
00:35:35.049 : en:Chapter 08
00:38:45.531 : en:Chapter 09
00:41:21.479 : en:Chapter 10
00:45:43.115 : en:Chapter 11
00:48:36.371 : en:Chapter 12
00:51:09.941 : en:Chapter 13
00:53:28.747 : en:Chapter 14
00:55:13.226 : en:Chapter 15
01:00:14.152 : en:Chapter 16
01:02:02.927 : en:Chapter 17
01:05:05.443 : en:Chapter 18
01:09:16.610 : en:Chapter 19
01:11:52.808 : en:Chapter 20
01:16:38.844 : en:Chapter 21


Source Information

Code:

Complete name : title04.mkv
File size : 22.4 GiB
Duration : 1 h 16 min
Overall bit rate mode : Variable
Overall bit rate : 41.8 Mb/s

 

* 총 용량 3.07GB

* 부가영상 들어있습니다.

연관검색어
한글
버튼의
크리스마스
악몽
The
Nightmare
Before
Christmas
1993
1080p
Bluray
x265
HEVC
10bit
AAC
7
1
Tigole

 
 

주간 인기게시물
정보가 없습니다.
번호 분류 스샷 제   목 마그넷 용량 날짜
무료게임리니지1/ 리니지M 해보셨다면 일단 클릭!본섭보다인원많음
12791 코미디 나홀로 집에 1-2 Home Alone (1990) REMASTERED 720p BRRip - Home Alone 2: Lost in New Y… 자막
1.05G 12-24
12790 SF/판타지 [한글] 산타클로스 컬렉션 The Santa Clause COLLECTiON 1994-2006 [1080p BluRay 10B… 자막
12.06G 12-24
12789 호러 [한글] 악령의 리사 Deadly.Blessing.1981.Bluray.1080p.DTS-HD-2.0.x264-Grym 자막
12.20G 12-24
12788 드라마 [한글] 클레오파트라 Cleopatra.1963.1080p.BluRay.x264.DTS-FGT 자막
17.76G 12-24
12787 스릴러 [한글] 토마스 크라운 어페어 The Thomas Crown Affair (1968) 720p.BRrip.Sujaidr 
891.85M 12-16
12786 호러 [한글] 살아있는 시체들의 밤 Night.of.the.Living.Dead.1968.(x265 AAC)/720p.BluRa…  2.64G 12-16
12785 스릴러 [한글] 로프트 Loft.2008.BluRay.1080p.x265.10bit.AAC-highcal 
2.16G 12-16
12784 SF/판타지 [한글] 론머 맨 The.Lawnmower.Man.1992.DC.BluRay.1080p.x265.10bit.AAC-highcal 
4.35G 12-16
12783 드라마 [한글] 노이 알비노이 Noi.Albinoi.2003.WS.DVDRip.XviD.AC3-C00LdUdE 
1.46G 12-16
12782 코미디 [한글] 솔드 아웃 Jingle All the Way 1996 (1080p Bluray x265 HEVC 10bit AAC 5.1 Tigol… 
2.52G 12-15
12781 코미디 [한글] 조찬 클럽 The Breakfast Club 1985 30th Anniversary Edition 1080p Bluray AC3 M… 
3.65G 12-15
12780 코미디 [한글] 스크루지 Scrooged 1988 (1080p Bluray x265 HEVC 10bit AAC 5.1 Tigole) 
2.38G 12-15
12779 SF/판타지 [한글] 어비스: 메가 샤크 Mega.Shark.vs..Mecha.Shark.2014.720+1080p.BluRay.x264.YI  698.90M 12-15
12778 SF/판타지 [한글] 라비린스 Labyrinth.1986.1080p.BluRay.x264.TrueHD.7.1.Atmos-SWTYBLZ 자막
12.23G 12-15
12777 다큐 [한글] 침묵의 시선 The.Look.Of.Silence.2014.SUBBED.1080p.BluRay.x264-RRH 자막
7.64G 12-15
12776 다큐 [한글] 침묵의 시선 The Look Of Silence.2014.SUBBED.1080p.BluRay.HEVC.6CH.Vid24x7 자막
1.83G 12-15
12775 SF/판타지 [한글] 크리스마스 캐롤 A Christmas Carol 1984 1080p BluRay x264 DTS 5.1 MSubS-Hon 
4.41G 12-15
12774 로맨스 [한글] 티파니에서 아침을 Breakfast at Tiffanys (1961) 1080p BluRay AC3 x264 MAVI 
4.07G 12-15
12773 로맨스 [한글] 사랑보다 아름다운 유혹 Cruel Intentions (1999) (1080p BluRay x265 HEVC … 
2.47G 12-14
12772 드라마 [한글] 맨발의 이사도라 Isadora.1968.1080p.BluRay.x264.YIFY 
2.06G 12-14