서버에 요청중입니다...
[2018/1/20] 업데이트사항
1. 화면 우측에 달력이 있습니다. 해당날짜를 클릭하면 통합검색이 됩니다.
2. 각 게시판에 마그넷을 추가하였습니다. 리스트에서 마그넷을 확인할수 있습니다. 단, 자막이 있는경우 내용으로 들어가셔서 이용하셔야 합니다.
[광고/문의]
토렌트 토캅스 바로가기
트위터 즐겨찾기
아이디 비밀번호
[중요] 접속오류시 구글에서 토캅스를 검색하세요. 공식주소: https://tocorps.com
[AD]
빠른메뉴 공지사항 토렌트설치 주간인기TOP 100 19+검색 어른장난감
작성일 : 17-12-15 02:20 [로맨스]
[한글] 티파니에서 아침을 Breakfast at Tiffanys (1961) 1080p BluRay AC3 x264 MAVI
 [한글] 티파니에서 아침을 Breakfast at Tiffanys (1961) 1080p BluRay AC3 x264 MAVI [직접다운]
 [무료게임] 2002년도 리니지! 그때 그시절 사람들이 당신을 기다리고 있습니다 [클릭]
전체용량: 4.07G
토렌트 파일목록 (13)
Breakfast at Tiffany's (1961) 1080p BluRay x264 MAVI.mkv 4.01G
Sample Breakfast at Tiffany's (1961) 1080p.mkv 37.32M
SS/0 (6).png 2.44M
SS/0 (5).png 2.24M
SS/0 (7).png 2.22M
SS/0 (2).png 2.13M
SS/0 (8).png 1.92M
SS/0 (3).png 1.91M
SS/0 (1).png 1.90M
SS/0 (4).png 1.83M
Follow Me on FACEBOOK & Help Me.txt 113.00B
Torrent_downloaded_from_Demonoid_-_www.demonoid.pw_.txt 59.00B
Torrent Download From Extradesimovies.in.txt 40.00B

 

Movie Encode From Full BD/BDREMUX 

Breakfast at Tiffanys (1961) 1080p BluRay AC3 x264 MAVI 

Movie Name :  Breakfast at Tiffanys (1961) 
IMDB Link : http://www.imdb.com/title/tt0054698/ 
Runtime : 1.55 Min 
Audio : English DD 5.1/Hindi ORG VCD DD 2.0(Titan Thanks) 
Subtitle : English PGS/ Hindi PGS 
Size : 4.1GB
 

Sample include in torrent



Video 
ID : 1 
Format : AVC 
Format/Info : Advanced Video Codec 
Format profile : [email protected] 
Format settings : CABAC / 4 Ref Frames 
Format settings, CABAC : Yes 
Format settings, RefFrames : 4 frames 
Codec ID : V_MPEG4/ISO/AVC 
Duration : 1 h 55 min 
Bit rate mode : Variable 
Bit rate : 4 250 kb/s 
Maximum bit rate : 62.5 Mb/s 
Width : 1 920 pixels 
Height : 1 080 pixels 
Display aspect ratio : 16:9 
Frame rate mode : Constant 
Frame rate : 23.976 (24000/1001) FPS 
Color space : YUV 
Chroma subsampling : 4:2:0 
Bit depth : 8 bits 
Scan type : Progressive 
Bits/(Pixel*Frame) : 0.085 
Stream size : 3.42 GiB (85%) 

Audio 
ID : 2 
Format : AC-3 
Format/Info : Audio Coding 3 
Codec ID : A_AC3 
Duration : 1 h 55 min 
Bit rate mode : Constant 
Bit rate : 640 kb/s 
Channel(s) : 6 channels 
Channel positions : Front: L C R, Side: L R, LFE 
Sampling rate : 48.0 kHz 
Frame rate : 31.250 FPS (1536 SPF) 
Bit depth : 16 bits 
Compression mode : Lossy 
Stream size : 527 MiB (13%) 
Language : English 
Service kind : Complete Main 
Default : Yes 
Forced : No 

Text #1 
ID : 3 
Format : PGS 
Codec ID : S_HDMV/PGS 
Codec ID/Info : Picture based subtitle format used on BDs/HD-DVDs 
Duration : 1 h 50 min 
Bit rate : 43.5 kb/s 
Count of elements : 3054 
Stream size : 34.4 MiB (1%) 
Language : English 

한 여성의 진실한 사랑 찾기를 그린 로맨틱드라마. 신분 상승을 꿈꾸는 여주인공으로 세기의 배우 오드리 헵번이 출연, 청순미와 우아한 매력을 선보인다. 34회 아카데미 음악상, 주제가상 수상작.


연관검색어
한글
티파니에서
아침을
Breakfast
at
Tiffanys
1961
1080p
BluRay
AC3
x264
MAVI

 
 

주간 인기게시물
정보가 없습니다.
번호 분류 스샷 제   목 마그넷 용량 날짜
무료게임리니지1/ 리니지M 해보셨다면 일단 클릭!본섭보다인원많음
12791 코미디 나홀로 집에 1-2 Home Alone (1990) REMASTERED 720p BRRip - Home Alone 2: Lost in New Y… 자막
1.05G 12-24
12790 SF/판타지 [한글] 산타클로스 컬렉션 The Santa Clause COLLECTiON 1994-2006 [1080p BluRay 10B… 자막
12.06G 12-24
12789 호러 [한글] 악령의 리사 Deadly.Blessing.1981.Bluray.1080p.DTS-HD-2.0.x264-Grym 자막
12.20G 12-24
12788 드라마 [한글] 클레오파트라 Cleopatra.1963.1080p.BluRay.x264.DTS-FGT 자막
17.76G 12-24
12787 스릴러 [한글] 토마스 크라운 어페어 The Thomas Crown Affair (1968) 720p.BRrip.Sujaidr 
891.85M 12-16
12786 호러 [한글] 살아있는 시체들의 밤 Night.of.the.Living.Dead.1968.(x265 AAC)/720p.BluRa…  2.64G 12-16
12785 스릴러 [한글] 로프트 Loft.2008.BluRay.1080p.x265.10bit.AAC-highcal 
2.16G 12-16
12784 SF/판타지 [한글] 론머 맨 The.Lawnmower.Man.1992.DC.BluRay.1080p.x265.10bit.AAC-highcal 
4.35G 12-16
12783 드라마 [한글] 노이 알비노이 Noi.Albinoi.2003.WS.DVDRip.XviD.AC3-C00LdUdE 
1.46G 12-16
12782 코미디 [한글] 솔드 아웃 Jingle All the Way 1996 (1080p Bluray x265 HEVC 10bit AAC 5.1 Tigol… 
2.52G 12-15
12781 코미디 [한글] 조찬 클럽 The Breakfast Club 1985 30th Anniversary Edition 1080p Bluray AC3 M… 
3.65G 12-15
12780 코미디 [한글] 스크루지 Scrooged 1988 (1080p Bluray x265 HEVC 10bit AAC 5.1 Tigole) 
2.38G 12-15
12779 SF/판타지 [한글] 어비스: 메가 샤크 Mega.Shark.vs..Mecha.Shark.2014.720+1080p.BluRay.x264.YI  698.90M 12-15
12778 SF/판타지 [한글] 라비린스 Labyrinth.1986.1080p.BluRay.x264.TrueHD.7.1.Atmos-SWTYBLZ 자막
12.23G 12-15
12777 다큐 [한글] 침묵의 시선 The.Look.Of.Silence.2014.SUBBED.1080p.BluRay.x264-RRH 자막
7.64G 12-15
12776 다큐 [한글] 침묵의 시선 The Look Of Silence.2014.SUBBED.1080p.BluRay.HEVC.6CH.Vid24x7 자막
1.83G 12-15
12775 SF/판타지 [한글] 크리스마스 캐롤 A Christmas Carol 1984 1080p BluRay x264 DTS 5.1 MSubS-Hon 
4.41G 12-15
12774 로맨스 [한글] 티파니에서 아침을 Breakfast at Tiffanys (1961) 1080p BluRay AC3 x264 MAVI 
4.07G 12-15
12773 로맨스 [한글] 사랑보다 아름다운 유혹 Cruel Intentions (1999) (1080p BluRay x265 HEVC … 
2.47G 12-14
12772 드라마 [한글] 맨발의 이사도라 Isadora.1968.1080p.BluRay.x264.YIFY 
2.06G 12-14