서버에 요청중입니다...
[2018/1/20] 업데이트사항
1. 화면 우측에 달력이 있습니다. 해당날짜를 클릭하면 통합검색이 됩니다.
2. 각 게시판에 마그넷을 추가하였습니다. 리스트에서 마그넷을 확인할수 있습니다. 단, 자막이 있는경우 내용으로 들어가셔서 이용하셔야 합니다.
[광고/문의]
토렌트 토캅스 바로가기
트위터 즐겨찾기
아이디 비밀번호
[중요] 접속오류시 구글에서 토캅스를 검색하세요. 공식주소: https://tocorps.com
[AD]
빠른메뉴 공지사항 토렌트설치 주간인기TOP 100 19+검색 어른장난감
작성일 : 17-12-15 17:20 [코미디]
[한글] 스크루지 Scrooged 1988 (1080p Bluray x265 HEVC 10bit AAC 5.1 Tigole)
 [한글] 스크루지 Scrooged 1988 (1080p Bluray x265 HEVC 10bit AAC 5.1 Tigole) [직접다운]
 [무료게임] 2002년도 리니지! 그때 그시절 사람들이 당신을 기다리고 있습니다 [클릭]
전체용량: 2.38G
토렌트 파일목록 (2)
Featurettes/Trailer.mkv 26.91M
Scrooged 1988 (1080p x265 10bit Tigole).mkv 2.35G

스크루지

 

방송국 사장인 프랭크(Frank Cross: 빌 머레이 분)는 돈만을 생각하는 사람, 그에게 크리스마스란 특집방송으로 돈 벌수 있는 기회일 뿐이다. 특집쇼 기획 회의에서 직원을 가볍게 해고하는 그에게, 7년전에 죽은 시체가 찾아와 유령의 방문을 예고한다. 어린 시절과 일 때문에 사랑하는 여인을 떠나보냈던 청년 시절을 회상시켜주는 택시기사 유령, 가족과 애정을 일깨워주는 요정, 미래의 처참한 장례식으로 데려가는 괴물 유령이 차례로 그를 방문한다. 미래까지 갖다온 프랭크는 인간에게 가장 소중한 것이 관심과 사랑임을 깨닫게 된다.

 



Scrooged 1988 in 1080p, encoded with x265 in HEVC and AAC 5.1 English, with English and German subtitles!
Encoded using the time consuming 2 pass, 10 bit color at 3000 kbps, from a Blu-ray source, for the highest quality possible.



Media Information

Code:

General
Format : Matroska
Format version : Version 4 / Version 2
File size : 2.35 GiB
Duration : 1 h 40 min
Overall bit rate : 3 332 kb/s
Encoded date : UTC 2016-12-22 04:52:58
Writing application : mkvmerge v9.6.0 (Slave To Your Mind) 64bit
Writing library : libebml v1.3.4 + libmatroska v1.4.5

Video
ID : 1
Format : HEVC
Format/Info : High Efficiency Video Coding
Format profile : Main [email protected]@Main
Codec ID : V_MPEGH/ISO/HEVC
Duration : 1 h 40 min
Bit rate : 2 985 kb/s
Width : 1 920 pixels
Height : 1 080 pixels
Display aspect ratio : 16:9
Frame rate mode : Constant
Frame rate : 23.976 (24000/1001) FPS
Color space : YUV
Chroma subsampling : 4:2:0
Bit depth : 10 bits
Bits/(Pixel*Frame) : 0.060
Stream size : 2.10 GiB (90%)
Writing library : x265 2.1+70-78e1e1354a25:[Windows][GCC 6.2.0][64 bit] 10bit
Encoding settings : cpuid=1173503 / frame-threads=3 / numa-pools=8 / wpp / no-pmode / no-pme / no-psnr / no-ssim / log-level=2 / input-csp=1 / input-res=1920x1080 / interlace=0 / total-frames=145188 / level-idc=0 / high-tier=1 / uhd-bd=0 / ref=3 / no-allow-non-conformance / no-repeat-headers / annexb / no-aud / no-hrd / info / hash=0 / no-temporal-layers / open-gop / min-keyint=23 / keyint=250 / bframes=4 / b-adapt=2 / b-pyramid / bframe-bias=0 / rc-lookahead=20 / lookahead-slices=6 / scenecut=40 / no-intra-refresh / ctu=64 / min-cu-size=8 / no-rect / no-amp / max-tu-size=32 / tu-inter-depth=1 / tu-intra-depth=1 / limit-tu=0 / rdoq-level=0 / signhide / no-tskip / nr-intra=0 / nr-inter=0 / no-constrained-intra / strong-intra-smoothing / max-merge=2 / limit-refs=3 / no-limit-modes / me=1 / subme=2 / merange=57 / temporal-mvp / weightp / no-weightb / no-analyze-src-pics / deblock=0:0 / sao / no-sao-non-deblock / rd=3 / no-early-skip / rskip / no-fast-intra / no-tskip-fast / no-cu-lossless / no-b-intra / rdpenalty=0 / psy-rd=2.00 / psy-rdoq=0.00 / no-rd-refine / analysis-mode=0 / no-lossless / cbqpoffs=0 / crqpoffs=0 / rc=abr / bitrate=2986 / qcomp=0.60 / qpstep=4 / stats-write=0 / stats-read=2 / stats-file=E:Scrooged / cplxblur=20.0 / qblur=0.5 / ipratio=1.40 / pbratio=1.30 / aq-mode=2 / aq-strength=1.00 / cutree / zone-count=0 / no-strict-cbr / qg-size=32 / no-rc-grain / qpmax=69 / qpmin=0 / sar=0 / overscan=0 / videoformat=5 / range=0 / colorprim=2 / transfer=2 / colormatrix=2 / chromaloc=0 / display-window=0 / max-cll=0,0 / min-luma=0 / max-luma=1023 / log2-max-poc-lsb=8 / vui-timing-info / vui-hrd-info / slices=1 / opt-qp-pps / opt-ref-list-length-pps / no-multi-pass-opt-rps / scenecut-bias=0.05
Default : Yes
Forced : No

Audio
ID : 2
Format : AAC
Format/Info : Advanced Audio Codec
Format profile : LC
Codec ID : A_AAC
Duration : 1 h 40 min
Bit rate : 333 kb/s
Channel(s) : 6 channels
Channel positions : Front: L C R, Side: L R, LFE
Sampling rate : 48.0 kHz
Frame rate : 46.875 FPS (1024 spf)
Compression mode : Lossy
Delay relative to video : 20 ms
Stream size : 240 MiB (10%)
Language : English
Default : Yes
Forced : No

Text #1
ID : 3
Format : VobSub
Muxing mode : zlib
Codec ID : S_VOBSUB
Codec ID/Info : Picture based subtitle format used on DVDs
Duration : 1 h 39 min
Bit rate : 5 782 b/s
Count of elements : 1478
Stream size : 4.13 MiB (0%)
Language : English
Default : No
Forced : No

Text #2
ID : 4
Format : VobSub
Muxing mode : zlib
Codec ID : S_VOBSUB
Codec ID/Info : Picture based subtitle format used on DVDs
Duration : 1 h 34 min
Bit rate : 5 990 b/s
Count of elements : 1202
Stream size : 4.04 MiB (0%)
Language : German
Default : No
Forced : No

Menu
00:00:00.000 : en:Chapter 01
00:09:10.174 : en:Chapter 02
00:16:15.432 : en:Chapter 03
00:24:20.667 : en:Chapter 04
00:35:55.611 : en:Chapter 05
00:42:20.162 : en:Chapter 06
00:51:37.886 : en:Chapter 07
00:58:21.331 : en:Chapter 08
01:05:06.986 : en:Chapter 09
01:17:17.507 : en:Chapter 10
01:24:00.452 : en:Chapter 11
01:35:09.995 : en:Chapter 12


Source Information

Code:

Complete name : title00.mkv
File size : 20.7 GiB
Duration : 1 h 40 min
Overall bit rate mode : Variable
Overall bit rate : 29.4 Mb/s


* 용량 2.37GB
연관검색어
한글
스크루지
Scrooged
1988
1080p
Bluray
x265
HEVC
10bit
AAC
5
1
Tigole

 
 

주간 인기게시물
정보가 없습니다.
번호 분류 스샷 제   목 마그넷 용량 날짜
무료게임리니지1/ 리니지M 해보셨다면 일단 클릭!본섭보다인원많음
12791 코미디 나홀로 집에 1-2 Home Alone (1990) REMASTERED 720p BRRip - Home Alone 2: Lost in New Y… 자막
1.05G 12-24
12790 SF/판타지 [한글] 산타클로스 컬렉션 The Santa Clause COLLECTiON 1994-2006 [1080p BluRay 10B… 자막
12.06G 12-24
12789 호러 [한글] 악령의 리사 Deadly.Blessing.1981.Bluray.1080p.DTS-HD-2.0.x264-Grym 자막
12.20G 12-24
12788 드라마 [한글] 클레오파트라 Cleopatra.1963.1080p.BluRay.x264.DTS-FGT 자막
17.76G 12-24
12787 스릴러 [한글] 토마스 크라운 어페어 The Thomas Crown Affair (1968) 720p.BRrip.Sujaidr 
891.85M 12-16
12786 호러 [한글] 살아있는 시체들의 밤 Night.of.the.Living.Dead.1968.(x265 AAC)/720p.BluRa…  2.64G 12-16
12785 스릴러 [한글] 로프트 Loft.2008.BluRay.1080p.x265.10bit.AAC-highcal 
2.16G 12-16
12784 SF/판타지 [한글] 론머 맨 The.Lawnmower.Man.1992.DC.BluRay.1080p.x265.10bit.AAC-highcal 
4.35G 12-16
12783 드라마 [한글] 노이 알비노이 Noi.Albinoi.2003.WS.DVDRip.XviD.AC3-C00LdUdE 
1.46G 12-16
12782 코미디 [한글] 솔드 아웃 Jingle All the Way 1996 (1080p Bluray x265 HEVC 10bit AAC 5.1 Tigol… 
2.52G 12-15
12781 코미디 [한글] 조찬 클럽 The Breakfast Club 1985 30th Anniversary Edition 1080p Bluray AC3 M… 
3.65G 12-15
12780 코미디 [한글] 스크루지 Scrooged 1988 (1080p Bluray x265 HEVC 10bit AAC 5.1 Tigole) 
2.38G 12-15
12779 SF/판타지 [한글] 어비스: 메가 샤크 Mega.Shark.vs..Mecha.Shark.2014.720+1080p.BluRay.x264.YI  698.90M 12-15
12778 SF/판타지 [한글] 라비린스 Labyrinth.1986.1080p.BluRay.x264.TrueHD.7.1.Atmos-SWTYBLZ 자막
12.23G 12-15
12777 다큐 [한글] 침묵의 시선 The.Look.Of.Silence.2014.SUBBED.1080p.BluRay.x264-RRH 자막
7.64G 12-15
12776 다큐 [한글] 침묵의 시선 The Look Of Silence.2014.SUBBED.1080p.BluRay.HEVC.6CH.Vid24x7 자막
1.83G 12-15
12775 SF/판타지 [한글] 크리스마스 캐롤 A Christmas Carol 1984 1080p BluRay x264 DTS 5.1 MSubS-Hon 
4.41G 12-15
12774 로맨스 [한글] 티파니에서 아침을 Breakfast at Tiffanys (1961) 1080p BluRay AC3 x264 MAVI 
4.07G 12-15
12773 로맨스 [한글] 사랑보다 아름다운 유혹 Cruel Intentions (1999) (1080p BluRay x265 HEVC … 
2.47G 12-14
12772 드라마 [한글] 맨발의 이사도라 Isadora.1968.1080p.BluRay.x264.YIFY 
2.06G 12-14