서버에 요청중입니다...
[2018/1/20] 업데이트사항
1. 화면 우측에 달력이 있습니다. 해당날짜를 클릭하면 통합검색이 됩니다.
2. 각 게시판에 마그넷을 추가하였습니다. 리스트에서 마그넷을 확인할수 있습니다. 단, 자막이 있는경우 내용으로 들어가셔서 이용하셔야 합니다.
[광고/문의]
토렌트 토캅스 바로가기
트위터 즐겨찾기
아이디 비밀번호
[중요] 접속오류시 구글에서 토캅스를 검색하세요. 공식주소: https://tocorps.com
[AD]
빠른메뉴 공지사항 토렌트설치 주간인기TOP 100 19+검색 어른장난감
작성일 : 17-12-15 17:20 [코미디]
[한글] 조찬 클럽 The Breakfast Club 1985 30th Anniversary Edition 1080p Bluray AC3 MAVI
 [한글] 조찬 클럽 The Breakfast Club 1985 30th Anniversary Edition 1080p Bluray AC3 MAVI [직접다운]
 [무료게임] 2002년도 리니지! 그때 그시절 사람들이 당신을 기다리고 있습니다 [클릭]
전체용량: 3.65G
토렌트 파일목록 (15)
The Breakfast Club 30th Anniversary Edition 1080p Bluray AC3 MAVI.mkv 3.59G
Sample The Breakfast Club 30th Anniversary Edition 1080p.mkv 39.85M
SS/SS (4).png 2.50M
SS/SS (2).png 2.36M
SS/SS (6).png 2.32M
SS/SS (7).png 2.23M
SS/SS (3).png 2.15M
SS/SS (9).png 2.14M
SS/SS (1).png 2.12M
SS/SS (5).png 1.99M
SS/SS (10).png 1.91M
SS/SS (8).png 1.81M
Follow Me on FACEBOOK & Help Me.txt 113.00B
Torrent_downloaded_from_Demonoid_-_www.demonoid.pw_.txt 59.00B
Torrent Download From Extradesimovies.in.txt 40.00B

 

Movie Encode From Full BD/BDREMUX 

The Breakfast Club 1985 30th Anniversary Edition 1080p Bluray AC3 MAVI 

Movie Name :  The Breakfast Club 1985 
IMDB Link : http://www.imdb.com/title/tt0088847 
Runtime : 1.36 Min 
Subtitle : English PGS/ Hindi PGS 
Size : 3.59GB
 

Sample Include in torrent 



Video 
ID : 1 
Format : AVC 
Format/Info : Advanced Video Codec 
Format profile : High [email protected] 
Format settings : CABAC / 4 Ref Frames 
Format settings, CABAC : Yes 
Format settings, RefFrames : 4 frames 
Codec ID : V_MPEG4/ISO/AVC 
Duration : 1 h 36 min 
Bit rate mode : Variable 
Bit rate : 4 500 kb/s 
Maximum bit rate : 62.5 Mb/s 
Width : 1 920 pixels 
Height : 1 040 pixels 
Display aspect ratio : 1.85:1 
Frame rate mode : Constant 
Frame rate : 23.976 (24000/1001) FPS 
Color space : YUV 
Chroma subsampling : 4:2:0 
Bit depth : 10 bits 
Scan type : Progressive 
Bits/(Pixel*Frame) : 0.094 
Stream size : 3.05 GiB (85%) 
Title : The Breakfast Club 30th Anniversary Edition 1080p Bluray AC3 MAVI 

Audio 
ID : 2 
Format : AC-3 
Format/Info : Audio Coding 3 
Codec ID : A_AC3 
Duration : 1 h 36 min 
Bit rate mode : Constant 
Bit rate : 640 kb/s 
Channel(s) : 6 channels 
Channel positions : Front: L C R, Side: L R, LFE 
Sampling rate : 48.0 kHz 
Frame rate : 31.250 FPS (1536 SPF) 
Bit depth : 16 bits 
Compression mode : Lossy 
Stream size : 444 MiB (12%) 
Language : English 
Service kind : Complete Main 
Default : Yes 
Forced : No 

Text #1 
ID : 3 
Format : PGS 
Codec ID : S_HDMV/PGS 
Codec ID/Info : Picture based subtitle format used on BDs/HD-DVDs 
Duration : 1 h 36 min 
Bit rate : 32.4 kb/s 
Count of elements : 2399 
Stream size : 22.3 MiB (1%) 
Language : Hindi 
Default : No 
Forced : No 

Text #2 
ID : 4 
Format : PGS 
Codec ID : S_HDMV/PGS 
Codec ID/Info : Picture based subtitle format used on BDs/HD-DVDs 
Duration : 1 h 36 min 
Bit rate : 42.9 kb/s 
Count of elements : 2753 
Stream size : 29.7 MiB (1%) 
Language : English 
Default : No 
Forced : No 

Text #3 
ID : 5 
Format : PGS 
Codec ID : S_HDMV/PGS 
Codec ID/Info : Picture based subtitle format used on BDs/HD-DVDs 
Duration : 1 h 36 min 
Bit rate : 80.4 kb/s 
Count of elements : 3673 
Stream size : 55.6 MiB (2%) 
Language : English 
Default : No 
Forced : No 

셔머 고등학교의 토요일 아침. 문제아들이 벌로 토요일에 등교하게 된다. 부모에게 늘 인정받지 못하고 무시당하자 불량배가 된 존(John Bender: 쥬드 넬슨 분), 승부에 집착하는 아버지(Andys Father: 론 딘 분) 때문에 동료 선수를 괴롭힌 레슬링 선수 앤디(Andrew Clark: 에밀리오 에스테베즈 분), 성적 때문에 스트레스를 받다가 자살 기도까지 한 천재 브라이언(Brian Johnson: 안소니 마이클 홀 분), 부모의 주도권 다툼에 가정에서 만족을 얻지 못하고 사치와 낭비로 소일하는 부잣집 딸 클레어(Claire Standish: 몰리 링왈드 분), 부모의 주의를 끌기 위해 이상 성격을 나타내는 알리슨(Allison Reynolds: 앨리 쉬디 분) 등이 한 교실에 모이는데.

연관검색어
한글
조찬
클럽
The
Breakfast
Club
1985
30th
Anniversary
Edition
1080p
Bluray
AC3
MAVI

 
 

주간 인기게시물
정보가 없습니다.
번호 분류 스샷 제   목 마그넷 용량 날짜
무료게임리니지1/ 리니지M 해보셨다면 일단 클릭!본섭보다인원많음
12791 코미디 나홀로 집에 1-2 Home Alone (1990) REMASTERED 720p BRRip - Home Alone 2: Lost in New Y… 자막
1.05G 12-24
12790 SF/판타지 [한글] 산타클로스 컬렉션 The Santa Clause COLLECTiON 1994-2006 [1080p BluRay 10B… 자막
12.06G 12-24
12789 호러 [한글] 악령의 리사 Deadly.Blessing.1981.Bluray.1080p.DTS-HD-2.0.x264-Grym 자막
12.20G 12-24
12788 드라마 [한글] 클레오파트라 Cleopatra.1963.1080p.BluRay.x264.DTS-FGT 자막
17.76G 12-24
12787 스릴러 [한글] 토마스 크라운 어페어 The Thomas Crown Affair (1968) 720p.BRrip.Sujaidr 
891.85M 12-16
12786 호러 [한글] 살아있는 시체들의 밤 Night.of.the.Living.Dead.1968.(x265 AAC)/720p.BluRa…  2.64G 12-16
12785 스릴러 [한글] 로프트 Loft.2008.BluRay.1080p.x265.10bit.AAC-highcal 
2.16G 12-16
12784 SF/판타지 [한글] 론머 맨 The.Lawnmower.Man.1992.DC.BluRay.1080p.x265.10bit.AAC-highcal 
4.35G 12-16
12783 드라마 [한글] 노이 알비노이 Noi.Albinoi.2003.WS.DVDRip.XviD.AC3-C00LdUdE 
1.46G 12-16
12782 코미디 [한글] 솔드 아웃 Jingle All the Way 1996 (1080p Bluray x265 HEVC 10bit AAC 5.1 Tigol… 
2.52G 12-15
12781 코미디 [한글] 조찬 클럽 The Breakfast Club 1985 30th Anniversary Edition 1080p Bluray AC3 M… 
3.65G 12-15
12780 코미디 [한글] 스크루지 Scrooged 1988 (1080p Bluray x265 HEVC 10bit AAC 5.1 Tigole) 
2.38G 12-15
12779 SF/판타지 [한글] 어비스: 메가 샤크 Mega.Shark.vs..Mecha.Shark.2014.720+1080p.BluRay.x264.YI  698.90M 12-15
12778 SF/판타지 [한글] 라비린스 Labyrinth.1986.1080p.BluRay.x264.TrueHD.7.1.Atmos-SWTYBLZ 자막
12.23G 12-15
12777 다큐 [한글] 침묵의 시선 The.Look.Of.Silence.2014.SUBBED.1080p.BluRay.x264-RRH 자막
7.64G 12-15
12776 다큐 [한글] 침묵의 시선 The Look Of Silence.2014.SUBBED.1080p.BluRay.HEVC.6CH.Vid24x7 자막
1.83G 12-15
12775 SF/판타지 [한글] 크리스마스 캐롤 A Christmas Carol 1984 1080p BluRay x264 DTS 5.1 MSubS-Hon 
4.41G 12-15
12774 로맨스 [한글] 티파니에서 아침을 Breakfast at Tiffanys (1961) 1080p BluRay AC3 x264 MAVI 
4.07G 12-15
12773 로맨스 [한글] 사랑보다 아름다운 유혹 Cruel Intentions (1999) (1080p BluRay x265 HEVC … 
2.47G 12-14
12772 드라마 [한글] 맨발의 이사도라 Isadora.1968.1080p.BluRay.x264.YIFY 
2.06G 12-14