서버에 요청중입니다...
[2018/1/20] 업데이트사항
1. 화면 우측에 달력이 있습니다. 해당날짜를 클릭하면 통합검색이 됩니다.
2. 각 게시판에 마그넷을 추가하였습니다. 리스트에서 마그넷을 확인할수 있습니다. 단, 자막이 있는경우 내용으로 들어가셔서 이용하셔야 합니다.
[광고/문의]
토렌트 토캅스 바로가기
트위터 즐겨찾기
아이디 비밀번호
[중요] 접속오류시 구글에서 토캅스를 검색하세요. 공식주소: https://tocorps.com
[AD]
빠른메뉴 공지사항 토렌트설치 주간인기TOP 100 19+검색 어른장난감
작성일 : 17-12-15 17:20 [코미디]
[한글] 솔드 아웃 Jingle All the Way 1996 (1080p Bluray x265 HEVC 10bit AAC 5.1 Tigole) [UTR]
 [한글] 솔드 아웃 Jingle All the Way 1996 (1080p Bluray x265 HEVC 10bit AAC 5.1 Tigole) [UTR] [직접다운]
 [무료게임] 2002년도 리니지! 그때 그시절 사람들이 당신을 기다리고 있습니다 [클릭]
전체용량: 2.52G
토렌트 파일목록 (5)
Featurettes/Deleted and Extended Scenes.mkv 241.28M
Featurettes/Super Kids.mkv 32.76M
Featurettes/The Making of a Hero.mkv 77.38M
Featurettes/Turbo Man - Behind the Mask.mkv 39.34M
Jingle All the Way 1996 (1080p x265 10bit Tigole).mkv 2.14G

 

Jingle All the Way 1996 in 1080p, encoded with x265 in HEVC and AAC 5.1 English, with subtitles! 
Encoded using the time consuming 2 pass, 10 bit color at 2965 kbps, from a Blu-ray source, for the highest quality possible. 



Media Information

Code:

General 
Format : Matroska 
Format version : Version 4 / Version 2 
File size : 2.14 GiB 
Duration : 1 h 29 min 
Overall bit rate : 3 417 kb/s 
Movie name : Jingle All the Way 
Encoded date : UTC 2016-12-21 08:59:08 

Video 
ID : 1 
Format : HEVC 
Format/Info : High Efficiency Video Coding 
Format profile : Main [email protected]@Main 
Codec ID : V_MPEGH/ISO/HEVC 
Duration : 1 h 29 min 
Bit rate : 2 964 kb/s 
Width : 1 920 pixels 
Height : 1 040 pixels 
Display aspect ratio : 1.85:1 
Frame rate mode : Constant 
Frame rate : 23.976 (24000/1001) FPS 
Color space : YUV 
Chroma subsampling : 4:2:0 
Bit depth : 10 bits 
Bits/(Pixel*Frame) : 0.062 
Stream size : 1.85 GiB (87%) 

Audio 
ID : 2 
Format : AAC 
Format/Info : Advanced Audio Codec 
Format profile : LC 
Codec ID : A_AAC 
Duration : 1 h 29 min 
Bit rate : 353 kb/s 
Channel(s) : 6 channels 
Channel positions : Front: L C R, Side: L R, LFE 
Sampling rate : 48.0 kHz 
Frame rate : 46.875 FPS (1024 spf) 
Compression mode : Lossy 
Delay relative to video : 20 ms 
Stream size : 227 MiB (10%) 
Language : English 
Default : Yes 
Forced : No 

Text #21 
ID : 23 
Format : VobSub 
Muxing mode : zlib 
Codec ID : S_VOBSUB 
Codec ID/Info : Picture based subtitle format used on DVDs 
Duration : 1 h 28 min 
Bit rate : 4 101 b/s 
Count of elements : 1040 
Stream size : 2.60 MiB (0%) 
Language : Korean 
Default : No 
Forced : No 

한글 자막 내장

하워드는 의욕있는 사업가인데 일이 너무 바빠 아내와 아들에게는 점수가 좋지 못하다. 반면 옆집 남자 테드는 아들에게 지극 정성이라는 하워드는 늘 자신이 부족한 아빠라는 콤플렉스에 시달린다. 크리스마스 이틀 전. 아들에게 터보맨이라는 인형을 사주기로 한 것을 깜빡하고 다음 날 일찍 백화점을 가나 인형은 이미 동이 났다. 그때부터 터보맨을 사기 위한 하워드의 눈물겨운 노력이 시작된다.

연관검색어
한글
솔드
아웃
Jingle
All
the
Way
1996
1080p
Bluray
x265
HEVC
10bit
AAC
5
1
Tigole
UTR

 
 

주간 인기게시물
정보가 없습니다.
번호 분류 스샷 제   목 마그넷 용량 날짜
무료게임리니지1/ 리니지M 해보셨다면 일단 클릭!본섭보다인원많음
12791 코미디 나홀로 집에 1-2 Home Alone (1990) REMASTERED 720p BRRip - Home Alone 2: Lost in New Y… 자막
1.05G 12-24
12790 SF/판타지 [한글] 산타클로스 컬렉션 The Santa Clause COLLECTiON 1994-2006 [1080p BluRay 10B… 자막
12.06G 12-24
12789 호러 [한글] 악령의 리사 Deadly.Blessing.1981.Bluray.1080p.DTS-HD-2.0.x264-Grym 자막
12.20G 12-24
12788 드라마 [한글] 클레오파트라 Cleopatra.1963.1080p.BluRay.x264.DTS-FGT 자막
17.76G 12-24
12787 스릴러 [한글] 토마스 크라운 어페어 The Thomas Crown Affair (1968) 720p.BRrip.Sujaidr 
891.85M 12-16
12786 호러 [한글] 살아있는 시체들의 밤 Night.of.the.Living.Dead.1968.(x265 AAC)/720p.BluRa…  2.64G 12-16
12785 스릴러 [한글] 로프트 Loft.2008.BluRay.1080p.x265.10bit.AAC-highcal 
2.16G 12-16
12784 SF/판타지 [한글] 론머 맨 The.Lawnmower.Man.1992.DC.BluRay.1080p.x265.10bit.AAC-highcal 
4.35G 12-16
12783 드라마 [한글] 노이 알비노이 Noi.Albinoi.2003.WS.DVDRip.XviD.AC3-C00LdUdE 
1.46G 12-16
12782 코미디 [한글] 솔드 아웃 Jingle All the Way 1996 (1080p Bluray x265 HEVC 10bit AAC 5.1 Tigol… 
2.52G 12-15
12781 코미디 [한글] 조찬 클럽 The Breakfast Club 1985 30th Anniversary Edition 1080p Bluray AC3 M… 
3.65G 12-15
12780 코미디 [한글] 스크루지 Scrooged 1988 (1080p Bluray x265 HEVC 10bit AAC 5.1 Tigole) 
2.38G 12-15
12779 SF/판타지 [한글] 어비스: 메가 샤크 Mega.Shark.vs..Mecha.Shark.2014.720+1080p.BluRay.x264.YI  698.90M 12-15
12778 SF/판타지 [한글] 라비린스 Labyrinth.1986.1080p.BluRay.x264.TrueHD.7.1.Atmos-SWTYBLZ 자막
12.23G 12-15
12777 다큐 [한글] 침묵의 시선 The.Look.Of.Silence.2014.SUBBED.1080p.BluRay.x264-RRH 자막
7.64G 12-15
12776 다큐 [한글] 침묵의 시선 The Look Of Silence.2014.SUBBED.1080p.BluRay.HEVC.6CH.Vid24x7 자막
1.83G 12-15
12775 SF/판타지 [한글] 크리스마스 캐롤 A Christmas Carol 1984 1080p BluRay x264 DTS 5.1 MSubS-Hon 
4.41G 12-15
12774 로맨스 [한글] 티파니에서 아침을 Breakfast at Tiffanys (1961) 1080p BluRay AC3 x264 MAVI 
4.07G 12-15
12773 로맨스 [한글] 사랑보다 아름다운 유혹 Cruel Intentions (1999) (1080p BluRay x265 HEVC … 
2.47G 12-14
12772 드라마 [한글] 맨발의 이사도라 Isadora.1968.1080p.BluRay.x264.YIFY 
2.06G 12-14